songclip rolling in the deep cover Oct 8 2011

[audio:http://www.beautifulwork.org/wp-content/uploads/2011/10/scars.mp3%5D

Audio Recorder
: gnome-sound-recorder 2.30.0 Details : recorded as a wav file.
Play
$mplayer scars.wav
MPlayer SVN-r33057 (C) 2000-2010 MPlayer Team
Can't open joystick device /dev/input/js0: No such file or directory
Can't init input joystick
mplayer: could not connect to socket
mplayer: No such file or directory
Failed to open LIRC support. You will not be able to use your remote control.

Playing scars.wav.
Audio only file format detected.
Load subtitles in ./
==========================================================================
Opening audio decoder: [pcm] Uncompressed PCM audio decoder
AUDIO: 22050 Hz, 1 ch, s32le, 705.6 kbit/100.00% (ratio: 88200->88200)
Selected audio codec: [pcm] afm: pcm (Uncompressed PCM)
==========================================================================
AO: [alsa] 48000Hz 1ch s32le (4 bytes per sample)
Video: no video
Starting playback...
A:  18.7 (18.7) of 24347.0 ( 6:45:47.0)  0.6%


Exiting... (End of file)
$

MP3 Conversion
: ffmpeg Details : $ffmpeg -i scars.wav -ab 160k scars.mp3 FFmpeg version git-6a7e074, Copyright (c) 2000-2011 the FFmpeg developers built on Mar 8 2011 09:54:27 with gcc 4.5.2 configuration: --prefix=/usr --extra-cflags='-Wall -g ' --cc='ccache cc' --enable-shared --enable-libmp3lame --enable-gpl --enable-libvorbis --enable-pthreads --enable-libfaac --enable-libxvid --enable-postproc --enable-x11grab --enable-libgsm --enable-libtheora --enable-libopencore-amrnb --enable-libopencore-amrwb --enable-libx264 --enable-libspeex --enable-nonfree --disable-stripping --enable-avfilter --enable-libdirac --disable-decoder=libdirac --enable-libschroedinger --disable-encoder=libschroedinger --enable-version3 --enable-libopenjpeg --enable-libvpx --enable-librtmp --extra-libs=-lgcrypt --disable-altivec --disable-armv5te --disable-armv6 --disable-vis libavutil 50. 39. 0 / 50. 39. 0 libavcodec 52.113. 2 / 52.113. 2 libavformat 52.102. 0 / 52.102. 0 libavdevice 52. 2. 3 / 52. 2. 3 libavfilter 1. 76. 0 / 1. 76. 0 libswscale 0. 12. 0 / 0. 12. 0 libpostproc 51. 2. 0 / 51. 2. 0 [wav @ 0x10e1800] max_analyze_duration reached Input #0, wav, from 'scars.wav': Duration: 06:45:47.14, bitrate: 0 kb/s Stream #0.0: Audio: pcm_s32le, 22050 Hz, 1 channels, s32, 705 kb/s Incompatible sample format 's32' for codec 'libmp3lame', auto-selecting format 's16' Output #0, mp3, to 'scars.mp3': Metadata: TSSE : Lavf52.102.0 Stream #0.0: Audio: libmp3lame, 22050 Hz, 1 channels, s16, 160 kb/s Stream mapping: Stream #0.0 -> #0.0 Press [q] to stop encoding size= 369kB time=18.91 bitrate= 160.0kbits/s video:0kB audio:369kB global headers:0kB muxing overhead 0.008989%
File Details
$file scars.*
scars.mp3: Audio file with ID3 version 2.4.0, contains: MPEG ADTS, layer III, v2, 160 kbps, 22.05 kHz, Monaural
scars.wav: RIFF (little-endian) data, WAVE audio, Microsoft PCM, 32 bit, mono 22050 Hz
$

Leave a Reply

Fill in your details below or click an icon to log in:

WordPress.com Logo

You are commenting using your WordPress.com account. Log Out /  Change )

Google photo

You are commenting using your Google account. Log Out /  Change )

Twitter picture

You are commenting using your Twitter account. Log Out /  Change )

Facebook photo

You are commenting using your Facebook account. Log Out /  Change )

Connecting to %s