songclip rolling in the deep cover Oct 6 2011

[audio:http://www.beautifulwork.org/wp-content/uploads/2011/10/roll1.mp3%5D

Audio Recorder
: gnome-sound-recorder 2.30.0 Details : recorded as a wav file.
Merging
: $cat roll2.wav >> roll1.wav
MP3 Conversion
: ffmpeg Details : $ffmpeg -i roll1.wav -ab 320k roll1.mp3 FFmpeg version git-6a7e074, Copyright (c) 2000-2011 the FFmpeg developers built on Mar 8 2011 09:54:27 with gcc 4.5.2 configuration: --prefix=/usr --extra-cflags='-Wall -g ' --cc='ccache cc' --enable-shared --enable-libmp3lame --enable-gpl --enable-libvorbis --enable-pthreads --enable-libfaac --enable-libxvid --enable-postproc --enable-x11grab --enable-libgsm --enable-libtheora --enable-libopencore-amrnb --enable-libopencore-amrwb --enable-libx264 --enable-libspeex --enable-nonfree --disable-stripping --enable-avfilter --enable-libdirac --disable-decoder=libdirac --enable-libschroedinger --disable-encoder=libschroedinger --enable-version3 --enable-libopenjpeg --enable-libvpx --enable-librtmp --extra-libs=-lgcrypt --disable-altivec --disable-armv5te --disable-armv6 --disable-vis libavutil 50. 39. 0 / 50. 39. 0 libavcodec 52.113. 2 / 52.113. 2 libavformat 52.102. 0 / 52.102. 0 libavdevice 52. 2. 3 / 52. 2. 3 libavfilter 1. 76. 0 / 1. 76. 0 libswscale 0. 12. 0 / 0. 12. 0 libpostproc 51. 2. 0 / 51. 2. 0 [wav @ 0xa5d800] max_analyze_duration reached Input #0, wav, from 'roll1.wav': Duration: 06:45:47.14, bitrate: 0 kb/s Stream #0.0: Audio: pcm_s32le, 22050 Hz, 1 channels, s32, 705 kb/s Incompatible sample format 's32' for codec 'libmp3lame', auto-selecting format 's16' Output #0, mp3, to 'roll1.mp3': Metadata: TSSE : Lavf52.102.0 Stream #0.0: Audio: libmp3lame, 22050 Hz, 1 channels, s16, 320 kb/s Stream mapping: Stream #0.0 -> #0.0 Press [q] to stop encoding size= 441kB time=22.60 bitrate= 160.0kbits/s video:0kB audio:441kB global headers:0kB muxing overhead 0.007523% $ $file roll1.wav roll1.wav: RIFF (little-endian) data, WAVE audio, Microsoft PCM, 32 bit, mono 22050 Hz $file roll1.mp3 roll1.mp3: Audio file with ID3 version 2.4.0, contains: MPEG ADTS, layer III, v2, 160 kbps, 22.05 kHz, Monaural $

Leave a Reply

Fill in your details below or click an icon to log in:

WordPress.com Logo

You are commenting using your WordPress.com account. Log Out /  Change )

Google photo

You are commenting using your Google account. Log Out /  Change )

Twitter picture

You are commenting using your Twitter account. Log Out /  Change )

Facebook photo

You are commenting using your Facebook account. Log Out /  Change )

Connecting to %s